Problem ripping CD'S with EAC ?

Dieses Thema im Forum "Exact Audio Copy - English" wurde erstellt von Just.B, 14 Januar 2012.

  1. Just.B

    Just.B
    Expand Collapse
    New Member

    Registriert seit:
    12 Januar 2012
    Beiträge:
    3
    Zustimmungen:
    0
    Hi, I am using EAC with AccurateRip to copy my cd's to WAV files uncompressed & it has come up with quite a few errors, it says 18 tracks could not be verified as accurate, maybe it is something I have done wrong in the settings of EAC. I have followed this guide EAC Installation Guide
    Here is the log of the last cd I copied, hope someone could please help ?

    Exact Audio Copy V1.0 beta 3 from 29. August 2011

    EAC extraction logfile from 10. January 2012, 11:32

    Nazareth / The Anthology

    Used drive : MATSHITADVD-RAM UJ-850S Adapter: 1 ID: 0

    Read mode : Secure
    Utilize accurate stream : Yes
    Defeat audio cache : Yes
    Make use of C2 pointers : No

    Read offset correction : 102
    Overread into Lead-In and Lead-Out : Yes
    Fill up missing offset samples with silence : Yes
    Delete leading and trailing silent blocks : No
    Null samples used in CRC calculations : Yes
    Used interface : Native Win32 interface for Win NT & 2000
    Gap handling : Appended to previous track

    Used output format : Internal WAV Routines
    Sample format : 44.100 Hz; 16 Bit; Stereo


    TOC of the extracted CD

    Track | Start | Length | Start sector | End sector
    ---------------------------------------------------------
    1 | 0:00.00 | 3:49.65 | 0 | 17239
    2 | 3:49.65 | 3:57.05 | 17240 | 35019
    3 | 7:46.70 | 3:44.23 | 35020 | 51842
    4 | 11:31.18 | 3:53.02 | 51843 | 69319
    5 | 15:24.20 | 3:05.44 | 69320 | 83238
    6 | 18:29.64 | 3:19.05 | 83239 | 98168
    7 | 21:48.69 | 3:43.00 | 98169 | 114893
    8 | 25:31.69 | 3:23.49 | 114894 | 130167
    9 | 28:55.43 | 4:14.42 | 130168 | 149259
    10 | 33:10.10 | 3:43.45 | 149260 | 166029
    11 | 36:53.55 | 4:11.44 | 166030 | 184898
    12 | 41:05.24 | 3:51.70 | 184899 | 202293
    13 | 44:57.19 | 3:26.04 | 202294 | 217747
    14 | 48:23.23 | 3:24.61 | 217748 | 233108
    15 | 51:48.09 | 7:48.68 | 233109 | 268276
    16 | 59:37.02 | 3:27.23 | 268277 | 283824
    17 | 63:04.25 | 3:44.34 | 283825 | 300658
    18 | 66:48.59 | 3:01.64 | 300659 | 314297
    19 | 69:50.48 | 6:30.45 | 314298 | 343592


    Track 1

    Filename C:\Users\Documents\Music\01 - Razamanaz - Nazareth - The Anthology - 2009 .wav

    Pre-gap length 0:00:02.00

    Peak level 97.7 %
    Extraction speed 0.7 X
    Track quality 100.0 %
    Copy CRC 879AF916
    Cannot be verified as accurate (confidence 8) [1E4DC107], AccurateRip returned [05DA04A7] (AR v2)
    Copy OK

    Track 2

    Filename C:\Users\Documents\Music\02 - Bad Bad Boy - Nazareth - The Anthology - 2009 .wav

    Peak level 97.7 %
    Extraction speed 0.7 X
    Track quality 99.9 %
    Copy CRC A87CDF82
    Cannot be verified as accurate (confidence 8) [FB9E431E], AccurateRip returned [C626B251] (AR v2)
    Copy OK

    Track 3

    Filename C:\Users\Documents\Music\03 - Broken Down Angel - Nazareth - The Anthology - 2009 .wav

    Peak level 97.7 %
    Extraction speed 0.9 X
    Track quality 100.0 %
    Copy CRC 84AC9C59
    Cannot be verified as accurate (confidence 8) [11E6BAF3], AccurateRip returned [82F94007] (AR v2)
    Copy OK

    Track 4

    Filename C:\Users\Documents\Music\04 - Woke Up This Morning - Nazareth - The Anthology - 2009 .wav

    Peak level 97.7 %
    Extraction speed 0.8 X
    Track quality 99.9 %
    Copy CRC 51F12691
    Cannot be verified as accurate (confidence 8) [97393250], AccurateRip returned [0BAD06DF] (AR v2)
    Copy OK

    Track 5

    Filename C:\Users\Documents\Music\05 - Go Down Fighting - Nazareth - The Anthology - 2009 .wav

    Peak level 97.7 %
    Extraction speed 0.8 X
    Track quality 99.9 %
    Copy CRC D195CFFD
    Cannot be verified as accurate (confidence 8) [E8530DFA], AccurateRip returned [E18AA7AD] (AR v2)
    Copy OK

    Track 6

    Filename C:\Users\Documents\Music\06 - Turn on Your Receiver - Nazareth - The Anthology - 2009 .wav

    Peak level 97.7 %
    Extraction speed 1.0 X
    Track quality 100.0 %
    Copy CRC 450E5BF9
    Cannot be verified as accurate (confidence 8) [13E90435], AccurateRip returned [3CE11190] (AR v2)
    Copy OK

    Track 7

    Filename C:\Users\Documents\Music\07 - Teenage Nervous Breakdown - Nazareth - The Anthology - 2009 .wav

    Peak level 97.7 %
    Extraction speed 1.1 X
    Track quality 100.0 %
    Copy CRC BD7E3771
    Cannot be verified as accurate (confidence 8) [58A3D491], AccurateRip returned [5F4E35CB] (AR v2)
    Copy OK

    Track 8

    Filename C:\Users\Documents\Music\08 - This Flight Tonight - Nazareth - The Anthology - 2009 .wav

    Peak level 97.7 %
    Extraction speed 1.1 X
    Track quality 100.0 %
    Copy CRC 0D54CAF9
    Cannot be verified as accurate (confidence 8) [FC526F87], AccurateRip returned [39BCAC5F] (AR v2)
    Copy OK

    Track 9

    Filename C:\Users\Documents\Music\09 - Sunshine - Nazareth - The Anthology - 2009 .wav

    Peak level 97.7 %
    Extraction speed 1.2 X
    Track quality 100.0 %
    Copy CRC 6043265B
    Cannot be verified as accurate (confidence 8) [60A37128], AccurateRip returned [56D5F7FB] (AR v2)
    Copy OK

    Track 10

    Filename C:\Users\Documents\Music\10 - Shanghai'd in Shanghai - Nazareth - The Anthology - 2009 .wav

    Peak level 97.7 %
    Extraction speed 1.2 X
    Track quality 100.0 %
    Copy CRC 3650A356
    Cannot be verified as accurate (confidence 8) [9A4B5EF7], AccurateRip returned [4D6C7C7A] (AR v2)
    Copy OK

    Track 11

    Filename C:\Users\Documents\Music\11 - Hair of the Dog - Nazareth - The Anthology - 2009 .wav

    Peak level 97.7 %
    Extraction speed 1.3 X
    Track quality 100.0 %
    Copy CRC 9B808151
    Cannot be verified as accurate (confidence 8) [5E46968F], AccurateRip returned [0E699CBF] (AR v2)
    Copy OK

    Track 12

    Filename C:\Users\Documents\Music\12 - Love Hurts - Nazareth - The Anthology - 2009 .wav

    Peak level 97.7 %
    Extraction speed 1.3 X
    Track quality 100.0 %
    Copy CRC 16B99DA3
    Accurately ripped (confidence 2) [23D0036A] (AR v1)
    Copy OK

    Track 13

    Filename C:\Users\Documents\Music\13 - My White Bicycle - Nazareth - The Anthology - 2009 .wav

    Peak level 97.7 %
    Extraction speed 1.3 X
    Track quality 100.0 %
    Copy CRC AF760372
    Cannot be verified as accurate (confidence 8) [B4A099E2], AccurateRip returned [CC51FEAF] (AR v2)
    Copy OK

    Track 14

    Filename C:\Users\Documents\Music\14 - Holy Roller - Nazareth - The Anthology - 2009 .wav

    Peak level 97.7 %
    Extraction speed 1.2 X
    Track quality 99.9 %
    Copy CRC 7AC38891
    Cannot be verified as accurate (confidence 8) [DE0F8AE5], AccurateRip returned [3636303A] (AR v2)
    Copy OK

    Track 15

    Filename C:\Users\Documents\Music\15 - Telegram - Nazareth - The Anthology - 2009 .wav

    Peak level 97.7 %
    Extraction speed 1.6 X
    Track quality 100.0 %
    Copy CRC 447F9D9F
    Cannot be verified as accurate (confidence 8) [B0E43E7D], AccurateRip returned [A4D9940C] (AR v2)
    Copy OK

    Track 16

    Filename C:\Users\Documents\Music\16 - Expect No Mercy - Nazareth - The Anthology - 2009 .wav

    Peak level 97.7 %
    Extraction speed 1.5 X
    Track quality 100.0 %
    Copy CRC D7F12FAC
    Cannot be verified as accurate (confidence 8) [F97CA52A], AccurateRip returned [97254FFE] (AR v2)
    Copy OK

    Track 17

    Filename C:\Users\Documents\Music\17 - Gone Dead Train - Nazareth - The Anthology - 2009 .wav

    Peak level 97.7 %
    Extraction speed 1.3 X
    Track quality 99.9 %
    Copy CRC B643DAD6
    Cannot be verified as accurate (confidence 8) [E36A5E40], AccurateRip returned [8FD1505C] (AR v2)
    Copy OK

    Track 18

    Filename C:\Users\Documents\Music\18 - Place in Your Heart - Nazareth - The Anthology - 2009 .wav

    Peak level 97.7 %
    Extraction speed 1.5 X
    Track quality 100.0 %
    Copy CRC BC86B0A4
    Cannot be verified as accurate (confidence 8) [58BD99B0], AccurateRip returned [B28EB24D] (AR v2)
    Copy OK

    Track 19

    Filename C:\Users\Documents\Music\19 - No Mean City - Nazareth - The Anthology - 2009 .wav

    Copy aborted


    1 track(s) accurately ripped
    17 track(s) could not be verified as accurate
    1 track(s) canceled

    Some tracks could not be verified as accurate

    There were errors

    End of status report

    ------------------------------------------------------------

    Exact Audio Copy V1.0 beta 3 from 29. August 2011

    EAC extraction logfile from 14. January 2012, 11:33

    Nazareth / The Anthology

    Used drive : MATSHITADVD-RAM UJ-850S Adapter: 1 ID: 0

    Read mode : Secure
    Utilize accurate stream : Yes
    Defeat audio cache : Yes
    Make use of C2 pointers : No

    Read offset correction : 102
    Overread into Lead-In and Lead-Out : No
    Fill up missing offset samples with silence : Yes
    Delete leading and trailing silent blocks : No
    Null samples used in CRC calculations : Yes
    Used interface : Native Win32 interface for Win NT & 2000
    Gap handling : Appended to previous track

    Used output format : Internal WAV Routines
    Sample format : 44.100 Hz; 16 Bit; Stereo


    TOC of the extracted CD

    Track | Start | Length | Start sector | End sector
    ---------------------------------------------------------
    1 | 0:00.00 | 3:49.65 | 0 | 17239
    2 | 3:49.65 | 3:57.05 | 17240 | 35019
    3 | 7:46.70 | 3:44.23 | 35020 | 51842
    4 | 11:31.18 | 3:53.02 | 51843 | 69319
    5 | 15:24.20 | 3:05.44 | 69320 | 83238
    6 | 18:29.64 | 3:19.05 | 83239 | 98168
    7 | 21:48.69 | 3:43.00 | 98169 | 114893
    8 | 25:31.69 | 3:23.49 | 114894 | 130167
    9 | 28:55.43 | 4:14.42 | 130168 | 149259
    10 | 33:10.10 | 3:43.45 | 149260 | 166029
    11 | 36:53.55 | 4:11.44 | 166030 | 184898
    12 | 41:05.24 | 3:51.70 | 184899 | 202293
    13 | 44:57.19 | 3:26.04 | 202294 | 217747
    14 | 48:23.23 | 3:24.61 | 217748 | 233108
    15 | 51:48.09 | 7:48.68 | 233109 | 268276
    16 | 59:37.02 | 3:27.23 | 268277 | 283824
    17 | 63:04.25 | 3:44.34 | 283825 | 300658
    18 | 66:48.59 | 3:01.64 | 300659 | 314297
    19 | 69:50.48 | 6:30.45 | 314298 | 343592


    Track 1

    Filename C:\Users\Documents\Music\01 - Razamanaz - Nazareth - The Anthology - 2009 .wav

    Pre-gap length 0:00:02.00

    Peak level 97.7 %
    Extraction speed 0.7 X
    Track quality 100.0 %
    Copy CRC 879AF916
    Cannot be verified as accurate (confidence 8) [1E4DC107], AccurateRip returned [05DA04A7] (AR v2)
    Copy OK

    Track 2

    Filename C:\Users\Documents\Music\02 - Bad Bad Boy - Nazareth - The Anthology - 2009 .wav

    Peak level 97.7 %
    Extraction speed 0.7 X
    Track quality 99.9 %
    Copy CRC A87CDF82
    Cannot be verified as accurate (confidence 8) [FB9E431E], AccurateRip returned [C626B251] (AR v2)
    Copy OK


    No tracks could be verified as accurate
    You may have a different pressing from the one(s) in the database

    No errors occurred

    End of status report
     
    #1 Just.B, 14 Januar 2012
    Zuletzt bearbeitet: 15 Januar 2012
  2. Workie

    Workie
    Expand Collapse
    Member

    Registriert seit:
    6 Januar 2009
    Beiträge:
    245
    Zustimmungen:
    5
    On those tracks with 99.9% quality, it means EAC did have to re-read a few sectors to get identical data, but the re-reads were successful, resulting in "Copy OK" for the track. So it looks like every track was ripped without problems. The drive offset seems to be correct. Only 8 people got identical rips of a pressing of that disc so far, and as the log says, "You may have a different pressing from the one(s) in the database." That's the simplest explanation. Nothing to worry about.
     
  3. Just.B

    Just.B
    Expand Collapse
    New Member

    Registriert seit:
    12 Januar 2012
    Beiträge:
    3
    Zustimmungen:
    0
    Thanks a lot Workie Great help :13:
     
Die Seite wird geladen...

Diese Seite empfehlen