Problem with CUE-Sheet

Dieses Thema im Forum "Exact Audio Copy - English" wurde erstellt von Carl Tornqvist, 26 Oktober 2017.

  1. Carl Tornqvist

    Carl Tornqvist
    Expand Collapse
    New Member

    Registriert seit:
    26 Oktober 2017
    Beiträge:
    2
    Zustimmungen:
    0
    I have a small problem with my cue-sheets. When I create one before ripping a cd it contains .wav as file instead of .flac. Is there a way to correct this inside EAC?

    Here's how the cue-sheet looks like:

    REM GENRE Rock
    REM DATE 2009
    REM DISCID FD127B12
    REM COMMENT "ExactAudioCopy v1.3"
    CATALOG 0886975309122
    PERFORMER "Bruce Springsteen & The E Street Band"
    TITLE "Greatest Hits"
    REM COMPOSER ""
    FILE "01. Blinded by the Light.wav" WAVE <--- why .wav instead of .flac??
    TRACK 01 AUDIO
    TITLE "Blinded by the Light"
    PERFORMER "Bruce Springsteen"
    REM COMPOSER ""
    ISRC USSM17300685
    INDEX 01 00:00:00
    TRACK 02 AUDIO
    TITLE "Rosalita (Come Out Tonight)"
    PERFORMER "Bruce Springsteen & The E Street Band"
    REM COMPOSER ""
    ISRC USSM10805632
    INDEX 00 05:03:15
    FILE "02. Rosalita (Come Out Tonight).wav" WAVE
    INDEX 01 00:00:00
    TRACK 03 AUDIO
    TITLE "Born to Run"
    PERFORMER "Bruce Springsteen"
    REM COMPOSER ""
    ISRC USSM17500423
    INDEX 00 07:01:30
    FILE "03. Born to Run.wav" WAVE
    INDEX 01 00:00:00
    TRACK 04 AUDIO
    TITLE "Thunder Road"
    PERFORMER "Bruce Springsteen"
    REM COMPOSER ""
    ISRC USSM19904335
    INDEX 00 04:29:15
    FILE "04. Thunder Road.wav" WAVE
    INDEX 01 00:00:00
    FILE "05. Badlands.wav" WAVE
    TRACK 05 AUDIO
    TITLE "Badlands"
    PERFORMER "Bruce Springsteen & The E Street Band"
    REM COMPOSER ""
    ISRC USSM10805636
    INDEX 01 00:00:00
    TRACK 06 AUDIO
    TITLE "Darkness on the Edge of Town"
    PERFORMER "Bruce Springsteen & The E Street Band"
    REM COMPOSER ""
    ISRC USSM10805635
    INDEX 00 04:01:36
    FILE "06. Darkness on the Edge of Town.wav" WAVE
    INDEX 01 00:00:00
    FILE "07. Hungry Heart.wav" WAVE
    TRACK 07 AUDIO
    TITLE "Hungry Heart"
    PERFORMER "Bruce Springsteen & The E Street Band"
    REM COMPOSER ""
    ISRC USSM10805637
    INDEX 01 00:00:00
    FILE "08. The River.wav" WAVE
    TRACK 08 AUDIO
    TITLE "The River"
    PERFORMER "Bruce Springsteen"
    REM COMPOSER ""
    ISRC USSM18000407
    INDEX 01 00:00:00
    FILE "09. Born in the U.S.A..wav" WAVE
    TRACK 09 AUDIO
    TITLE "Born in the U.S.A."
    PERFORMER "Bruce Springsteen & The E Street Band"
    REM COMPOSER ""
    ISRC USSM10805640
    INDEX 01 00:00:00
    FILE "10. I’m on Fire.wav" WAVE
    TRACK 10 AUDIO
    TITLE "I’m on Fire"
    PERFORMER "Bruce Springsteen"
    REM COMPOSER ""
    ISRC USSM18400411
    INDEX 01 00:00:00
    FILE "11. Glory Days.wav" WAVE
    TRACK 11 AUDIO
    TITLE "Glory Days"
    PERFORMER "Bruce Springsteen & The E Street Band"
    REM COMPOSER ""
    ISRC USSM18400411
    INDEX 01 00:00:00
    FILE "12. Dancing in the Dark.wav" WAVE
    TRACK 12 AUDIO
    TITLE "Dancing in the Dark"
    PERFORMER "Bruce Springsteen & The E Street Band"
    REM COMPOSER ""
    ISRC USSM10805639
    INDEX 01 00:00:00
    TRACK 13 AUDIO
    TITLE "The Rising"
    PERFORMER "Bruce Springsteen"
    REM COMPOSER ""
    ISRC USSM10209169
    INDEX 00 03:59:55
    FILE "13. The Rising.wav" WAVE
    INDEX 01 00:00:00
    FILE "14. Lonesome Day.wav" WAVE
    TRACK 14 AUDIO
    TITLE "Lonesome Day"
    PERFORMER "Bruce Springsteen"
    REM COMPOSER ""
    ISRC USSM10209157
    INDEX 01 00:00:00
    TRACK 15 AUDIO
    TITLE "Radio Nowhere"
    PERFORMER "Bruce Springsteen"
    REM COMPOSER ""
    ISRC USSM10703853
    INDEX 00 04:05:27
    FILE "15. Radio Nowhere.wav" WAVE
    INDEX 01 00:00:00
    TRACK 16 AUDIO
    TITLE "Long Walk Home"
    PERFORMER "Bruce Springsteen"
    REM COMPOSER ""
    ISRC USSM10703912
    INDEX 00 03:19:06
    FILE "16. Long Walk Home.wav" WAVE
    INDEX 01 00:00:00
    TRACK 17 AUDIO
    TITLE "Because the Night (live)"
    PERFORMER "Bruce Springsteen & The E Street Band"
    REM COMPOSER ""
    ISRC USSM18000165
    INDEX 00 04:34:09
    FILE "17. Because the Night (live).wav" WAVE
    INDEX 01 00:00:00
    TRACK 18 AUDIO
    TITLE "Fire (live)"
    PERFORMER "Bruce Springsteen & The E Street Band"
    REM COMPOSER ""
    ISRC USSM10503762
    INDEX 00 05:20:26
    FILE "18. Fire (live).wav" WAVE
    INDEX 01 00:00:00
     
  2. korth

    korth
    Expand Collapse
    Member

    Registriert seit:
    9 Juli 2015
    Beiträge:
    81
    Zustimmungen:
    6
    No. Action > Create CUE Sheet > Multiple WAV Files With Gaps... (Noncompliant)
    You can use a text editor, write a script, or use CUETools (Action: Correct filenames > Change extension > flac)
     
  3. Carl Tornqvist

    Carl Tornqvist
    Expand Collapse
    New Member

    Registriert seit:
    26 Oktober 2017
    Beiträge:
    2
    Zustimmungen:
    0
    Thanks I will try CUETools
     
Die Seite wird geladen...

Diese Seite empfehlen